<?xml version="1.0" standalone="no"?>
<!DOCTYPE svg PUBLIC "-//W3C//DTD SVG 1.1//EN" "http://www.w3.org/Graphics/SVG/1.1/DTD/svg11.dtd" >
<svg xmlns="http://www.w3.org/2000/svg">
<metadata>Generated by IcoMoon</metadata>
<defs>
<font id="icomoon" horiz-adv-x="1024">
<font-face units-per-em="1024" ascent="960" descent="-64" />
<missing-glyph horiz-adv-x="1024" />
<glyph unicode="&#x20;" d="" horiz-adv-x="512" />
<glyph unicode="&#x21;" d="M428.779 131.769c0-9.127-9.144-16.525-19.883-16.525v0c-10.739 0-19.883 7.398-19.883 16.525v213.735c0 9.127 9.144 16.525 19.883 16.525v0c10.739 0 19.883-7.398 19.883-16.525v-213.735zM814.755 50.966v371.595c0 37.959-11.11 67.659-33.021 88.275-31.437 29.579-73.85 28.925-79.698 28.686h-39.329v202.051l-0.003 0.333c-0.047 2.24-1.486 55.521-33.981 109.177-30.097 49.686-93.219 108.917-223.044 108.917-125.881 0-188.768-64.806-219.354-119.167-32.703-58.122-35.779-115.654-35.896-118.076l-0.018-183.238-37.046 0.003c-5.849 0.246-48.227 0.888-79.642-28.669-21.912-20.616-33.024-50.321-33.024-88.291l0.004-371.59c-0.223-5.799-1.010-52.92 29.685-85.306 18.659-19.688 44.481-29.67 76.751-29.67h601.131c32.264 0 58.090 9.984 76.76 29.668 30.71 32.387 29.946 79.513 29.727 85.301zM183.16 721.525c0.277 4.434 3.951 53.926 31.706 103.25 38.261 67.997 102.458 102.475 190.812 102.475 91.396 0 156.779-30.954 194.34-92.006 27.786-45.166 29.848-91.431 29.937-93.903v-201.82h-446.794l-0.001 182.003zM761.266-11.797c-12.241-12.911-30.073-19.453-52.998-19.453h-601.134c-22.837 0-40.618 6.493-52.843 19.306-22.378 23.446-20.881 61.365-20.864 61.693l0.024 0.438 0.001 372.374c0 28.445 7.571 50.059 22.507 64.242 22.6 21.464 55.775 20.007 56.032 20l0.499-0.031 590.925 0.031c0.328 0.021 33.33 1.398 55.878-19.816 15.072-14.184 22.713-35.858 22.713-64.426v-371.939l0.024-0.867c0.021-0.376 1.372-38.209-20.764-61.553z" horiz-adv-x="815" />
<glyph unicode="&#x24;" d="M413.153 461.131c-101.526 0-183.839-82.311-183.839-183.839 0-101.497 82.311-183.808 183.839-183.808 101.497 0 183.808 82.311 183.808 183.808-0.060 101.557-82.311 183.839-183.808 183.839zM413.153 205.372c-39.725 0-71.951 32.225-71.951 71.951s32.225 71.951 71.951 71.951 71.951-32.225 71.951-71.951-32.225-71.951-71.951-71.951zM741.345 960h-669.544c-43.491 0-78.758-35.268-78.758-78.758v-866.454c0-43.52 35.268-78.758 78.758-78.758h669.515c43.52 0 78.758 35.268 78.758 78.758v866.454c0.029 43.489-35.208 78.758-78.728 78.758zM741.345 80.384c0-43.489-22.137-65.626-65.657-65.626h-538.261c-43.489 0-65.626 22.137-65.626 65.626v735.201c0 43.52 22.137 65.657 65.626 65.657h538.233c43.52 0 65.657-22.137 65.657-65.657l-0.001-735.201z" horiz-adv-x="813" />
<glyph unicode="&#x25;" d="M357.002 248.619h-64.662c-20.206 0-32.344-12.138-32.344-32.344s12.138-32.344 32.344-32.344h64.662c20.23 0 32.344 12.138 32.344 32.344s-12.114 32.344-32.344 32.344zM206.123 151.59h-64.662c-20.23 0-32.344-12.138-32.344-32.344s12.113-32.344 32.344-32.344h64.662c20.206 0 32.344 12.138 32.344 32.344s-12.138 32.344-32.344 32.344zM206.123 345.6h-64.662c-20.23 0-32.344-12.138-32.344-32.344s12.113-32.344 32.344-32.344h64.662c20.206 0 32.344 12.138 32.344 32.344s-12.138 32.344-32.344 32.344zM206.123 248.619h-64.662c-20.23 0-32.344-12.138-32.344-32.344s12.113-32.344 32.344-32.344h64.662c20.206 0 32.344 12.138 32.344 32.344s-12.138 32.344-32.344 32.344zM357.002 151.59h-64.662c-20.206 0-32.344-12.138-32.344-32.344s12.138-32.344 32.344-32.344h64.662c20.23 0 32.344 12.138 32.344 32.344s-12.114 32.344-32.344 32.344zM615.723 960c-17.857 0-32.344-14.461-32.344-32.344v-143.585c-24.776 15.834-54.646 24.975-86.241 24.975l-355.701 0.026c-80.871 0-140.114-59.243-140.114-140.114v-592.821c0-80.846 59.242-140.138 140.113-140.138h355.677c80.871 0 150.927 59.292 150.927 140.138l0.001 571.268v280.25c0 17.882-14.485 32.344-32.319 32.344zM583.381 140.825c0-107.27-48.303-140.138-161.692-140.138h-204.801c-107.295 0-150.902 28.797-150.902 140.138v463.473c0 107.27 37.489 140.113 150.902 140.113h204.8c111.366 0 161.692-30.795 161.692-140.113l0.001-463.473zM357.002 345.6h-64.662c-20.206 0-32.344-12.138-32.344-32.344s12.138-32.344 32.344-32.344h64.662c20.23 0 32.344 12.138 32.344 32.344s-12.114 32.344-32.344 32.344zM507.929 345.6h-64.662c-20.23 0-32.344-12.138-32.344-32.344s12.113-32.344 32.344-32.344h64.662c20.206 0 32.344 12.138 32.344 32.344s-12.139 32.344-32.344 32.344zM507.929 151.59h-64.662c-20.23 0-32.344-12.138-32.344-32.344s12.113-32.344 32.344-32.344h64.662c20.206 0 32.344 12.138 32.344 32.344s-12.139 32.344-32.344 32.344zM507.929 248.619h-64.662c-20.23 0-32.344-12.138-32.344-32.344s12.113-32.344 32.344-32.344h64.662c20.206 0 32.344 12.138 32.344 32.344s-12.139 32.344-32.344 32.344z" horiz-adv-x="648" />
<glyph unicode="&#x26;" d="M377.905 597.261c58.929 0 106.716 47.787 106.716 106.739 0 58.929-47.787 106.716-106.716 106.716-58.954 0-106.716-47.787-106.716-106.716-0.024-58.929 47.762-106.739 106.716-106.739zM377.905 789.382c47.129 0 85.358-38.229 85.358-85.358 0-47.153-38.229-85.382-85.358-85.382s-85.382 38.229-85.382 85.382c0 47.154 38.254 85.358 85.382 85.358zM377.905 512c-123.709 0-223.987-100.278-223.987-223.987s100.278-223.987 223.987-223.987 223.964 100.278 223.964 223.987-100.255 223.987-223.964 223.987zM377.905 85.333c-111.933 0-202.678 90.746-202.678 202.678s90.746 202.678 202.678 202.678c111.933 0 202.678-90.746 202.678-202.678s-90.745-202.678-202.678-202.678zM377.905 353.037c-35.914 0-65.024-29.11-65.024-65.024s29.11-65.024 65.024-65.024 64.999 29.11 64.999 65.024-29.085 65.024-64.999 65.024zM697.905 960h-640c-35.328 0-64-28.672-64-64v-896c0-35.328 28.672-64 64-64h640c35.353 0 64 28.697 64 64l-0.024 896c0 35.328-28.623 64-63.976 64zM697.905 53.345c0-35.353-17.994-53.345-53.322-53.345h-533.333c-35.353 0-53.345 17.994-53.345 53.345v789.333c0 35.328 17.994 53.322 53.345 53.322h533.333c35.328 0 53.322-17.994 53.322-53.322v-789.333z" horiz-adv-x="755" />
<glyph unicode="&#x27;" d="M456.338 159.987c-26.527 0-47.982-21.479-47.982-47.982s21.479-48.006 47.982-48.006c26.527 0 48.006 21.504 48.006 48.006s-21.454 47.982-48.006 47.982zM867.036 960h-832c-26.673 0-42.667-15.994-42.667-42.667v-938.667c0-26.649 15.994-42.691 42.667-42.691h832c26.673 0 42.667 16.018 42.667 42.691l-0.001 938.667c0 26.673-15.969 42.667-42.666 42.667zM845.702 21.333c0-13.337-7.997-21.358-21.358-21.358l-746.642 0.025c-13.337 0-21.358 8.021-21.358 21.358l0.025 853.333c0 13.337 8.021 21.333 21.358 21.333h746.667c13.361 0 21.358-7.997 21.358-21.333l-0.050-853.358z" horiz-adv-x="902" />
<glyph unicode="&#x28;" d="M676.473 960h-630.122c-32.858 0-52.526-19.667-52.526-52.525v-918.98c0-32.799 19.667-52.555 52.525-52.555h630.182c32.799 0 52.525 19.697 52.525 52.555l-0.028 918.98c-0.031 32.857-19.697 52.525-52.555 52.525zM650.24 41.020c0-16.415-9.849-26.262-26.233-26.262h-525.16c-16.415 0-26.233 9.878-26.233 26.262v813.99c0 16.415 9.849 26.262 26.233 26.262h525.131c16.415 0 26.233-9.878 26.233-26.262l0.029-813.99zM367.978 211.697c-32.647 0-59.091-26.443-59.091-59.061s26.443-59.091 59.091-59.091 59.091 26.474 59.091 59.091-26.445 59.061-59.091 59.061z" horiz-adv-x="722" />
<glyph unicode="&#x29;" d="M656.871 964.9c-61.562 0-96.939-32.305-96.939-32.305s-290.742-258.438-290.717-258.463v-1.073c-3.535 0.561-7.094 1.073-10.777 1.073h-193.828c-35.694 0-64.609-28.941-64.609-64.609v-312.295c0-35.694 28.941-64.609 64.609-64.609h193.805c3.681 0 7.265 0.512 10.777 1.073v-1.073l290.766-269.215c0 0 35.353-32.305 96.939-32.305s86.162 28.941 86.162 64.609v904.582c0 35.645-24.576 64.609-86.187 64.609zM678.425 49.542c0-53.174-4.022-53.834-53.857-53.834l-240.225 215.381-99.377 86.138-166.522 0.001c-35.669 0-53.834 18.163-53.834 53.834v204.629c0 13.361 2.535 24.284 7.631 32.719 8.461 14.019 23.893 21.114 46.226 21.114h167.449l78.458 66.389 260.192 224.377c49.835 0 53.857 0 53.857-53.857l0.001-796.892zM978.627 435.175c9.777 90.844-46.763 179.346-129.146 208.847 0 0-35.011 12.922-45.153-16.799-10.435-40.010 16.799-45.13 16.799-45.13 62.367-14.848 100.278-74.63 93.233-140.045-4.949-45.86-37.156-81.286-75.776-100.132 1.195-0.609-43.935-10.289-27.185-51.249 9.679-26.234 52.37-16.458 52.37-16.458 61.319 27.114 107.155 89.553 114.859 160.964zM1129.692 432.25c7.9 157.671-82.066 297.667-219.331 356.035 0 0-28.867 12.8-43.569-8.607-21.529-35.059 8.046-54.321 8.046-54.321 116.298-46.567 196.925-157.842 190.318-289.914-5.51-109.348-84.455-202.265-174.275-250.637 0 0-25.843-12.045-12.922-42.471 12.068-24.186 42.496-12.922 42.496-12.922 111.981 57.881 202.458 167.815 209.237 302.837zM986.502 932.595c0 0-34.084 17.334-47.641-5.583-15.068-25.674 8.607-43.569 8.607-43.569 167.839-72.899 289.255-251.782 279.552-445.343-8.753-174.3-119.516-328.217-267.873-396.263 0 0-33.060-13.653-23.698-41.959 13.141-33.597 53.248-13.458 53.248-13.458 170.57 77.409 292.839 248.442 302.861 448.438 10.972 219.16-116.199 413.11-305.055 497.736z" horiz-adv-x="1291" />
<glyph unicode="&#x2a;" d="M1189.592 550.912c0 0-582.656 380.874-604.968 395.48-30.694 20.049-56.050 22.502-56.050 22.502l-325.336 0.349c0 0-42.738-0.377-55.673-20.21-9.728-14.902-134.118-205.177-142.606-218.193-12.961-19.833 3.826-59.122 3.826-59.122l130.83-297.849c0 0 12.639-22.421 43.089-42.335 26.435-17.301 604.942-395.48 604.942-395.48 24.818-16.195 49.394-11.075 65.617 13.743l350.101 535.526c16.167 24.79 10.994 49.394-13.771 65.589zM1117.885 484.568l-298.227-456.192c-8.111-12.423-20.399-14.983-32.794-6.872 0 0-547.302 357.753-565.274 369.503s-23.256 29.373-23.256 29.373l-114.069 258.586c0 0-13.123 23.175-6.872 32.822 6.279 9.619 110.215 168.582 116.71 178.525 6.467 9.889 32.794 6.872 32.794 6.872l282.598-0.728c0 0 21.046 0.405 36.245-9.512 15.171-9.97 565.274-369.61 565.274-369.61 12.369-8.085 14.982-20.373 6.872-32.768zM474.975 755.982c-65.725 42.982-153.816 24.522-196.797-41.202-43.008-65.752-24.522-153.842 41.202-196.824s153.816-24.522 196.797 41.202 24.522 153.816-41.202 196.824zM486.426 578.614c-32.202-49.313-98.304-63.137-147.617-30.909s-63.137 98.304-30.881 147.617c32.202 49.313 98.278 63.137 147.617 30.909 49.261-32.282 63.137-98.33 30.881-147.617z" horiz-adv-x="1212" />
<glyph unicode="&#x2b;" d="M1048.601 659.846c-21.821 0-44.178-7.534-64.317-13.020-36.597 174.934-183.393 309.59-369.958 309.59-162.645 0-300.569-101.473-360.131-243.615-141.117-5.998-254.195-132.949-254.195-275.407 0-146.091 128.878-254.221 275.382-254.221h243.615v63.537h-243.615v0.317c-1.853-0.074-3.633-0.317-5.461-0.317-111.129 0-206.361 85.235-206.361 196.365 0 111.178 84.943 206.214 196.047 206.214 12.678 0 25.137-1.39 37.302-3.73 37.792 138.972 168.936 247.321 317.416 247.321 176.371 0 307.175-152.868 307.175-328.338 0-7.655-0.366-15.238-0.878-22.674 32.646 33.402 77.873 54.515 127.951 54.515 99.474 0 180.102-83.359 180.102-180.833 0-97.451-80.604-168.717-180.053-168.765l-275.406-0.025v-63.537h275.384c135.217 0 243.59 101.401 243.59 233.034 0 131.609-108.373 243.59-243.59 243.59zM699.051 395.044h-105.91v-317.757h-74.143l127.122-137.679 127.122 137.679h-74.166l-0.025 317.757z" horiz-adv-x="1291" />
<glyph unicode="&#x2c;" d="M206.848 243.021l-206.848-206.848 94.592-94.592 204.595 204.595c-34.867 27.955-65.946 60.519-92.339 96.845zM600.345 954.419c-230.425 0-412.493-182.067-412.493-412.519 0-230.4 182.067-423.629 412.493-423.629s423.655 193.229 423.655 423.629c0 230.451-193.229 412.519-423.655 412.519zM600.345 185.165c-193.536 0-345.6 163.225-345.6 356.761 0 193.561 152.064 345.6 345.6 345.6s356.761-152.039 356.761-345.6c-0.025-193.535-163.199-356.761-356.761-356.761z" />
<glyph unicode="&#x2d;" d="M547.085 96.013c17.677 0 31.987 14.311 31.987 31.987v373.322c0 17.677-14.311 31.987-31.987 31.987s-31.987-14.311-31.987-31.987v-373.322c-0.025-17.7 14.286-31.987 31.987-31.987zM365.714 96.013c17.677 0 31.987 14.311 31.987 31.987v373.322c0 17.677-14.311 31.987-31.987 31.987s-31.987-14.311-31.987-31.987v-373.322c0-17.7 14.336-31.987 31.987-31.987zM184.394 96.013c17.677 0 31.987 14.311 31.987 31.987v373.322c0 17.677-14.311 31.987-31.987 31.987s-31.987-14.311-31.987-31.987v-373.322c-0.001-17.7 14.311-31.987 31.987-31.987zM589.727 863.987c-5.632 0-17.846 0-42.667 0-13.824 0-49.688 96.013-85.333 96.013-41.106 0-150.357 0-192 0-35.768 0-71.826-96.013-85.333-96.013-34.913 0-48.543 0-53.322 0-80.043 0-138.678-58.637-138.678-138.655v-725.332c0-35.353 28.672-64 64-64h618.667c35.353 0 64 28.672 64 64l-0.001 703.975v21.358c0 80.018-69.29 138.655-149.333 138.655zM312.394 906.655c15.652 0 90.99 0 106.667 0 21.333 0 27.673-42.667 42.667-42.667-12.045 0-179.346 0-192 0 16.334 0 21.331 42.667 42.666 42.667zM205.727 799.987h309.345c102.497 0 152.673-17.237 159.183-106.667l-617.229 0.001c5.096 87.747 44.495 106.666 148.7 106.666zM675.059 53.345c0-35.353-17.994-53.345-53.322-53.345h-511.999c-35.328 0-53.322 17.994-53.322 53.345v576h618.667v-576z" horiz-adv-x="730" />
<glyph unicode="&#x2e;" d="M376.358 689.938c-53.898 0-97.604-43.708-97.604-97.604s43.733-97.604 97.604-97.604c53.923 0 97.629 43.708 97.629 97.604s-43.681 97.604-97.629 97.604zM374.659 960c-219.61 0-366.492-146.756-366.492-366.492 0-243.986 366.492-657.508 366.492-657.508s366.492 413.521 366.492 657.508c-0.025 219.736-146.881 366.492-366.492 366.492zM72.829 582.744c0 187.367 114.463 312.594 301.806 312.594s301.806-125.227 301.806-312.594c0-208.022-301.806-549.713-301.806-549.713s-301.806 341.69-301.806 549.713z" horiz-adv-x="749" />
<glyph unicode="&#x2f;" d="M223.207 205.462h452.708v64.662l-452.708-0.001v-64.661zM223.207 421.052h452.708v64.662l-452.708-0.001v-64.661zM223.207 647.381h452.708v64.662l-452.708-0.001v-64.661zM848.397 960h-797.646c-26.948 0-43.108-16.184-43.108-43.133v-937.734c0-26.948 16.159-43.133 43.108-43.133h797.621c26.973 0 43.108 16.184 43.108 43.133l0.025 937.734c0 26.95-16.16 43.133-43.108 43.133zM826.817 22.241c0-13.462-8.067-21.579-21.554-21.579h-711.379c-13.462 0-21.579 8.092-21.579 21.579v851.517c0 13.487 8.092 21.579 21.579 21.579h711.381c13.462 0 21.554-8.067 21.554-21.579l-0.001-851.517z" horiz-adv-x="899" />
<glyph unicode="&#x30;" d="M171.008 313.281h388.046v64.662h-388.046v-64.662zM882.414 809.073h-150.902l-0.001 107.794c0 26.95-16.159 43.133-43.108 43.133h-646.742c-26.95 0-43.108-16.184-43.108-43.133v-797.621c0-26.948 16.159-43.108 43.108-43.108h150.902v-97.030c0-26.948 16.159-43.133 43.108-43.133h646.719c26.973 0 43.108 16.184 43.108 43.133l0.024 786.881c0 26.923-16.134 43.083-43.107 43.083zM84.792 140.8c-13.462 0-21.579 8.092-21.579 21.579l0.001 711.379c0 13.487 8.092 21.579 21.579 21.579h560.477c13.462 0 21.554-8.067 21.554-21.579v-711.381c0-13.462-8.067-21.579-21.554-21.579l-560.479 0.001zM860.835 22.241c0-13.462-8.092-21.579-21.579-21.579h-549.689c-13.462 0-21.554 8.092-21.554 21.579v53.898l420.39-0.001c26.948 0 43.108 16.159 43.108 43.108v614.4h107.794c13.462 0 21.579-8.067 21.579-21.579l-0.024-689.825zM171.008 507.267h388.046v64.662h-388.046v-64.662zM171.008 701.302h388.046v64.662h-388.046v-64.662z" horiz-adv-x="924" />
<glyph unicode="&#x31;" d="M505.557 676.477c10.664-21.23 16.783-45.156 16.783-70.531 0-74.052-51.050-136.042-119.833-153.126v-36.639c79.573 8.167 141.611 75.402 141.611 157.096 0.025 39.51-14.585 75.501-38.561 103.199zM674.866 622.305c0 186.492-151.203 337.695-337.72 337.695s-337.696-151.203-337.696-337.695c0-171.758 128.225-313.444 294.138-334.823v-221.884c-96.206-5.245-152.501-28.497-152.501-64.213 0-40.86 73.478-65.361 196.058-65.361 122.63 0 206.998 24.501 206.998 65.361 0 34.417-60.142 57.194-152.501 63.513v224.156c160.591 26.026 283.222 165.265 283.222 333.251zM337.146 349.946c-150.403 0-272.334 121.931-272.334 272.334s121.955 272.359 272.334 272.359 272.334-121.931 272.334-272.334-121.906-272.359-272.334-272.359z" horiz-adv-x="673" />
<glyph unicode="&#x32;" d="M173.606 317.802c-29.995 0-54.272-24.302-54.272-54.272s24.277-54.272 54.272-54.272c29.97 0 54.247 24.302 54.247 54.272s-24.277 54.272-54.247 54.272zM195.31 545.654v-65.087h0.774c0.75-18.282 2.148-36.415 4.545-54.247h-37.863c-89.887-0.025-162.766-72.878-162.766-162.766s72.879-162.766 162.766-162.766h200.554c101.85-100.577 241.714-162.766 396.213-162.766 304.303 0 552.21 240.989 563.624 542.495h0.55v65.087l-1128.397 0.025zM759.509 3.16c-146.058 0-277.429 62.763-368.715 162.766h-228.028c-53.923 0-97.654 43.733-97.654 97.654s43.733 97.654 97.654 97.654h118.010c-11.189 38.063-17.757 78.074-19.556 119.334h996.877c-11.389-265.565-230.201-477.408-498.588-477.408zM661.853 740.964c-43.108 0-86.515 33.518-86.515 75.951h-0.299v32.543h-65.087v-32.543h0.299c0-78.349 53.973-141.038 151.627-141.038h32.543v65.087h-32.568zM910.911 719.235c-5.17 77.249-64.786 130.198-140.562 130.198-1.823 0-9.016 0.075-10.84 0-43.133 0-75.951 33.542-75.951 75.951v32.568h-65.087v-32.543c0-78.349 61.965-141.038 141.038-141.038 1.823 0 9.041-0.050 10.84 0 43.208 0 75.951-31.494 75.951-75.951v-32.543h65.087l-0.001 43.357h-0.474z" horiz-adv-x="1323" />
<glyph unicode="&#x33;" d="M1006.183 437.874v-412.444c0-24.985-4.984-29.992-29.992-29.992h-769.798c-25.009 0-29.992 5.006-29.992 29.992v769.796c0 24.985 4.984 29.992 29.992 29.992h769.798c18.432 0 27.807-1.092 29.628-14.677l54.158 54.158c-8.966 13.222-26.442 21.027-44.032 21.027l-859.545-0.501c-25.009 0-39.982-14.995-39.982-39.982v-869.785c0-24.985 14.973-39.982 39.982-39.982h859.795c24.985 0 49.971 24.985 49.971 49.971v512.409l-59.983-59.983zM676.249 295.378c0-0.615-55.911-120.65-169.962-109.955-106.406 9.967 111.912 340.902-121.515 340.902-206.552 0-384.796-135.805-384.796-135.805v-22.642c0 0 181.066 135.805 384.796 135.805s-36.909-338.285 121.539-338.285c114.119 0 169.325 89.998 169.962 89.998 31.858 45.603 28.125 99.967-0.024 39.982zM1110.744 824.946l-352.118-352.051c0 0-41.756-86.266-18.682-109.34 24.849-24.872 114.688 13.334 114.688 13.334l352.12 352.051-96.007 96.006z" horiz-adv-x="1341" />
<glyph unicode="&#x34;" d="M1134.467 445.927l-521.016 465.295-506.556-465.295c0 0-28.547-67.135-28.547-80.771v-404.106c0-13.636 19.107-32.768 32.768-32.768h1015.658c13.661 0 32.768 19.107 32.768 32.768l-0.050 404.131c0.025 13.636-25.025 80.746-25.025 80.746zM1094.031 15.697c0-13.636-8.217-21.828-21.853-21.828h-273.034v338.545c0 40.935-35.516 65.511-76.451 65.511h-196.583c-40.96 0-76.451-24.576-76.451-65.511v-338.545h-283.947c-13.636 0-21.853 19.107-21.853 32.768v316.715c0 13.636 37.213 75.002 37.213 75.002l432.378 427.332 457.778-427.382c0 0 22.802-50.426 22.802-64.088v-338.52zM1145.407 813.867h-148.355v-123.63l148.355-148.33v271.96zM1235.993 365.181l-578.81 578.784c-17.059 17.059-48.452 17.059-65.511 0l-578.859-578.784c-17.059-17.059-17.059-48.452 0-65.511s48.452-17.059 65.511 0l546.066 546.016 546.067-546.066c17.034-17.034 48.452-17.034 65.511 0s17.059 48.502 0.025 65.561z" horiz-adv-x="1248" />
<glyph unicode="&#x35;" d="M1590.675 953.515h-1536.744c-33.731 0-53.931-20.232-53.931-53.931v-903.168c0-33.699 20.2-53.931 53.931-53.931h1536.714c33.729 0 53.931 20.232 53.931 53.931l-0.001 903.168c0.032 33.699-20.17 53.931-53.899 53.931zM1508.879 872.65l-700.075-552.68-687.755 552.68h1387.83zM1563.711 50.347c0-16.85-10.116-26.934-26.934-26.934l-1428.915-0.032c-16.85 0-26.934 10.116-26.934 26.934l-0.031 752.982 727.94-577.722 754.874 599.133v-774.361z" horiz-adv-x="1645" />
<glyph unicode="&#x36;" d="M312.63 570.322h-95.139c-25.507 0-40.774-15.297-40.774-40.774s15.297-40.774 40.774-40.774h95.139c25.507 0 40.774 15.297 40.774 40.774s-15.297 40.774-40.774 40.774zM1590.241 842.147c0 0-331.869 0-462.134 0-55.265 0-26.624 122.353-95.108 122.353-59.268 0-302.111 0-366.965 0-59.672 0-33.978-122.353-95.139-122.353-383.783 0-516.469 0-516.469 0-34.070 0-54.426-20.356-54.426-54.365v-801.916c0-33.978 20.356-54.365 54.365-54.365h1535.876c34.009 0 54.365 20.387 54.365 54.365v801.916c0 34.009-20.356 54.365-54.365 54.365zM1563.058 53.853c0-16.974-23.8-40.774-40.774-40.774h-1413.554c-16.974 0-27.214 10.177-27.214 27.182l0.031 693.187c0 16.974 10.209 27.182 27.214 27.182h1427.115c16.974 0 27.182-10.177 27.182-27.182l-0.031-679.595zM850.137 664.437c-152.949 0-276.946-123.967-276.946-276.914 0-152.917 123.997-276.914 276.946-276.914 152.949 0 276.977 123.967 276.977 276.914 0 152.947-123.997 276.914-276.977 276.914z" horiz-adv-x="1645" />
<glyph unicode="&#x37;" d="M119.334 523.976v-65.087c0 0 509.752-292.964 542.495-292.964 32.768 0 542.495 292.964 542.495 292.964v65.087c0 0-510.251-292.964-542.495-292.964-33.767 0-542.495 292.964-542.495 292.964zM1280.274 643.31c-10.714 7.642-538.599 314.642-618.446 314.642-79.822 0-595.418-299.307-618.446-314.642-23.027-15.36-43.382-44.107-43.382-65.112v-596.742c0-27.123 16.259-43.407 43.407-43.407h1236.867c27.149 0 43.432 16.284 43.432 43.407l0.001 596.742c0 17.933-28.074 57.444-43.434 65.112zM1258.596 24.838c0-13.562-8.142-21.679-21.704-21.679l-1150.102 0.001c-13.562 0-21.679 8.142-21.679 21.679l-0.024 542.52c0 13.562 32.543 32.543 32.543 32.543s501.261 292.964 564.199 292.964 567.62-296.061 567.62-296.061 29.121-15.859 29.121-29.422l0.026-542.545z" horiz-adv-x="1323" />
<glyph unicode="&#x38;" d="M591.111 704.907c-71.505 0-129.521-57.959-129.521-129.462s58.017-129.491 129.521-129.491 129.491 57.988 129.491 129.491-57.987 129.462-129.491 129.462zM1499.78 962.751h-1448.902c-31.802 0-50.879-19.076-50.879-50.849v-927.802c0-31.773 19.076-50.849 50.879-50.849h1448.902c31.773 0 50.849 19.076 50.849 50.849l-0.001 927.802c0 31.773-19.046 50.849-50.848 50.849zM1474.355 34.919c0-3.775-0.586-7.197-1.61-10.182-94.794 97.368-410.273 416.943-468.641 416.943-61.967 0-392.895-359.862-458.723-432.157h-57.782c30.515 36.015 74.869 87.889 125.279 145.262-79.199 64.045-156.935 121.651-180.721 121.651-43.594 0-260.184-193.448-339.441-265.596-10.386 3.014-16.442 11.498-16.442 24.109l-0.001 826.102c0 15.887 9.567 25.395 25.425 25.395h1347.263c15.887 0 25.395-9.567 25.395-25.395l0.029-826.133z" horiz-adv-x="1550" />
<glyph unicode="&#x39;" d="M679.911 404.442h-185.194v185.194c0 27.224-6.819 43.583-32.668 43.583-18.382 0-32.668-5.519-32.668-43.583v-206.998c0-2.447 0.225-4.696 0.424-6.943-0.15-1.298-0.424-2.547-0.424-3.921 0 0 0.525-5.494 3.896-11.964 5.070-13.162 14.986-20.705 28.772-20.705 0 0 1.174 0.175 2.748 0.525 2.547-0.324 5.22-0.525 8.142-0.525h206.998c27.224 0 43.608 6.819 43.608 32.668-0.051 18.358-5.571 32.669-43.634 32.669zM829.515 682.022l47.329 47.329c9.741 9.715 9.741 25.475 0 35.19l-70.382 70.382c-9.741 9.715-25.475 9.715-35.215 0l-50.001-50.001c-53.423 35.79-115.413 60.291-182.972 70.955v60.54h43.583c22.179 0 32.668 3.622 32.668 21.778 0.025 18.033-12.913 21.805-32.668 21.805h-239.666c-18.706 0-32.668-3.047-32.668-21.778 0-19.406 14.961-21.778 32.668-21.778h54.472v-58.893c-226.13-30.347-392.143-216.64-392.143-453.109 0-258.797 198.731-468.442 457.529-468.442s457.528 209.67 457.528 468.442c0 105.672-33.192 201.354-90.062 277.579zM462.049 1.361c-217.962 0-392.167 185.169-392.167 403.082 0 217.887 174.205 392.167 392.167 392.167 217.937 0 392.142-174.28 392.142-392.167 0.025-217.912-174.205-403.082-392.142-403.082z" horiz-adv-x="924" />
<glyph unicode="&#x3a;" d="M448.512 962.148c-245.286 0-448.512-166.138-448.512-371.937 0-180.074 158.645-326.257 361.023-361.023v-240.69c0 0 525.112 313.419 525.112 612.626-0.025 234.023-192.312 361.024-437.622 361.024zM426.659 119.795v164.090c-168.636 28.246-350.084 129.948-350.084 306.325 0 167.187 167.512 306.301 371.937 306.301s361.023-105.497 361.023-295.361c0-225.43-382.876-481.355-382.876-481.355zM962.685 721.458c-7.942 0-15.734-0.575-23.552-0.999 7.992-36.664 12.612-76.175 12.612-119.359 0-146.382-112.166-296.385-241.29-420.714l328.829-246.634v185.969c169.284 28.497 284.447 147.681 284.447 295.361-0.024 168.883-155.847 306.375-361.046 306.375z" horiz-adv-x="1323" />
<glyph unicode="&#x3b;" d="M492.17 846.062c28.847-62.489 50.851-111.691 90.886-153.301 40.086-41.61 136.317-52.224 169.359-7.393s-27.149 155.823-63.064 191.064c-35.94 35.265-59.891 66.984-146.557 77.824s-192.138-63.039-192.138-63.039 112.666 17.309 141.514-45.155zM1212.266 449.848c0-31.194-9.391-63.288-25.899-95.207 15.185-20.305 30.645-41.010 46.155-61.939 27.698 48.527 43.932 100.452 43.932 154.649 0 186.618-106.845 420.214-510.502 435.075 15.31-19.206 31.194-42.808 45.43-68.483 331.251-32.442 400.883-250.955 400.883-364.095zM616.398 5.682c-199.055 0 146.706 379.179-140.838 379.179-222.982 0-260.595-189.789-329.178-209.995-127.475-18.207-60.541 193.586-49.052 220.71 20.979 49.651 134.319 261.37 360.074 365.018-9.565 17.807-18.931 36.54-28.522 56.021-257.799-120.932-407.378-373.010-420.89-467.044-20.23-87.765-10.115-263.268 126.401-243.762 136.541 19.506 159.719 224.881 341.167 224.881 179.425 0-176.053-390.019 140.838-390.019 124.604 0 329.003 75.901 477.434 195.809-18.407 17.558-36.664 35.041-54.596 52.299-131.897-104.924-309.599-183.097-422.838-183.097zM890.431 624.028c0 0-39.462 59.942-99.752 0-53.998-53.747 0-99.203 0-99.203s507.105-520.867 532.031-496.065c24.925 24.8-432.278 595.268-432.278 595.268z" horiz-adv-x="1323" />
<glyph unicode="&#x3c;" d="M777.741 453.494v21.928c0 0 76.675 144.459 76.675 251.929 0 93.11-37.562 230.026-219.061 230.026-181.522 0-230.026-127.825-230.026-230.026 0-110.093 76.675-251.929 76.675-251.929s0-21.778 0-21.928c-233.247-66.884-482.003-254.701-482.003-328.654 0 0.474 0-87.64 0-87.64s-0.899-31.969 32.868-65.711c33.767-33.767 109.543-32.868 109.543-32.868l953.018 0.001c0 0 88.338 0.7 120.508 32.868 32.168 32.193 32.868 65.711 32.868 65.711s0 87.040 0 87.64c-0.025 82.643-253.802 261.543-471.065 328.653zM1183.069 70.094c0-88.639-144.159-65.711-251.954-65.711h-613.425c-107.794 0-251.954-22.877-251.954 65.711v54.746c46.705 102.275 374.234 272.11 482.005 284.822v87.64c-48.778 52.174-76.675 143.11-76.675 230.026 0 129.049 74.977 164.314 164.314 164.314 89.338 0 153.35-35.265 153.35-164.314 0-86.865-27.922-177.827-76.675-230.026v-87.64c106.147-26.175 426.634-187.617 471.040-284.822l-0.001-54.746zM788.705 300.12c0 0-142.386-153.35-153.35-153.35-10.965 0-165.713 155.324-165.713 155.324l-20.53-23.851c0 0 174.354-186.218 186.243-186.218s175.254 186.218 175.254 186.218l-21.905 21.877z" horiz-adv-x="1248" />
<glyph unicode="&#x3d;" d="M760.458 407.19h-186.094v186.094c0 27.349-6.844 43.782-32.843 43.782-18.457 0-32.843-5.544-32.843-43.782v-207.997c0-2.447 0.225-4.721 0.424-6.993-0.15-1.323-0.424-2.547-0.424-3.946 0 0 0.575-5.245 3.747-11.538 5.045-13.537 15.086-21.279 29.096-21.279 0 0 1.523 0.15 3.797 0.75 2.372-0.25 4.47-0.75 7.143-0.75h207.997c27.349 0 43.807 6.844 43.807 32.843 0 18.429-5.569 32.815-43.807 32.815zM372.936 871.861c-4.671 18.182-14.086 35.466-28.447 49.827-42.635 42.634-99.704 53.572-142.337 10.938l-164.214-164.164c-42.634-42.634-53.547-110.667-10.94-153.251 17.109-17.134 40.136-27.249 64.262-30.595 48.903 131.047 151.827 235.745 281.677 287.245zM1066.983 768.462l-153.251 153.251c-42.609 42.584-110.692 42.584-153.276 0-13.811-13.811-23.053-30.296-27.898-47.704 131.546-50.376 236.070-155.174 286.070-286.895 17.682 4.796 34.392 14.086 48.353 28.047 42.585 42.609 42.585 110.692 0.001 153.301zM607.207 874.808v57.818c0 13.686-8.192 21.903-21.903 21.903h-54.721c-13.711 0-21.903-8.217-21.903-21.903v-56.819c-239.542-22.077-426.909-223.356-426.909-468.616 0-114.888 41.135-220.11 109.493-301.806l-65.711-103.249c-10.34-17.383-6.918-44.707 10.94-54.721 17.882-10.040 45.806-3.697 54.746 10.94l57.070 89.688c82.020-69.557 188.142-111.566 304.153-111.566 119.108 0 227.752 46.579 310.621 121.931l67.009-106.147c8.892-14.685 36.689-21.030 54.497-10.99 17.782 10.065 21.155 37.489 10.89 54.922l-76.25 120.831c-0.2 0.324-0.499 0.55-0.675 0.874 65.436 83.144 104.648 188.092 104.648 300.232 0 241.49-181.747 430.905-415.994 456.679zM552.461 2.136c-219.011 0-405.055 186.069-405.055 405.055 0 218.961 186.044 405.030 405.055 405.030 219.036 0 405.080-175.129 405.055-394.090-0.025-218.887-186.044-415.969-405.055-415.994z" horiz-adv-x="1098" />
<glyph unicode="&#x3e;" d="M655.975 175.463h44.493l0.025 522.854h-44.493l-0.025-522.854zM1000.857 959.719c-226.201 0-320.845-123.367-320.845-123.367s-100.019 123.367-324.377 123.367-355.635-173.747-355.635-173.747v-805.785c0-27.801 21.607-43.929 44.16-43.929 122.215 0 96.435 122.368 311.475 122.368s275.379-122.368 322.611-122.368 107.545 122.368 322.611 122.368 189.184-122.368 311.475-122.368c25.191 0 44.493 16.691 44.493 44.493l-0.001 800.998c-0.025 0-76.928 177.971-355.968 177.971zM1290.061 25.293c0-13.901-8.345-22.247-22.247-22.247 0 0-64.896 122.368-267.008 122.368-224.333 0-320.819-120.039-320.819-120.039s-99.687 120.039-324.377 120.039c-206.183 0-266.983-122.368-266.983-122.368-13.901 0-22.272 8.371-22.272 22.247l0.053 734.183c0 0 104.883 133.504 289.229 133.504 241.561 0 273.997-132.199 324.377-132.199s89.088 132.199 320.845 132.199c222.464 0 289.203-133.504 289.203-133.504v-734.183z" horiz-adv-x="1357" />
<glyph unicode="&#x3f;" d="M583.111 956.672c-324.067 0-583.111-197.803-583.111-443.733 0-145.778 73.273-275.94 215.979-357.12l-53.988-216.462c0 0 390.087 99.868 529.124 140.686 278.13 66.844 475.164 214.443 475.164 432.924-0.057 245.902-259.1 443.705-583.168 443.705zM669.497 144.981c-203.236-56.661-421.148-119.068-421.148-119.068l53.988 162.332c-118.898 67.698-226.759 186.965-226.759 324.693 0 204.942 237.483 378.795 507.506 378.795s518.315-173.824 518.315-378.795c0.054-182.044-231.74-328.163-431.903-367.957z" horiz-adv-x="1166" />
<glyph unicode="&#x40;" d="M873.746 6.207h-417.617c-20.355 0-36.839-16.484-36.839-36.839s16.509-36.839 36.839-36.839h417.592c20.355 0 36.839 16.484 36.839 36.839 0.026 20.33-16.458 36.839-36.814 36.839zM1280.299 963.471h-1236.892c-27.149 0-43.407-16.284-43.407-43.407v-792.051c0-27.123 27.123-43.407 54.247-43.407h1226.052c27.149 0 43.407 16.284 43.407 43.407l-0.024 792.051c0.025 27.123-16.235 43.407-43.384 43.407zM1258.596 171.445c0-13.562-8.167-21.704-21.679-21.704l-1150.102-0.024c-13.562 0-21.679 8.167-21.679 21.704l-0.024 705.235c0 13.562 8.142 21.679 21.679 21.679h1150.102c13.562 0 21.679-8.142 21.679-21.679l0.024-705.212z" horiz-adv-x="1323" />
<glyph unicode="&#x66;" d="M523.264 940.715l-19.57 19.626-515.982-515.982 0.683-0.683-1.081-1.080 506.368-506.312 19.683 19.684-487.481 487.367z" horiz-adv-x="512" />
<glyph unicode="&#xdf;" d="M528.668 442.482l0.683 0.682-502.158 502.272-19.115-19.114 484.125-484.182-474.454-474.453 19.115-19.058 492.885 492.772z" horiz-adv-x="568" />
<glyph unicode="&#xe600;" d="M348.14 693.76h327.68v-40.96h-327.68v40.96zM878.428 693.76h-161.628v-40.96h125.071l77.251-675.84h-814.264l77.23 675.84h125.092v40.96h-161.628l-86.589-757.76h906.076zM327.66 611.84c7.496 0 14.438-2.15 20.48-5.673v46.633h-40.96v-46.633c6.062 3.523 12.984 5.673 20.48 5.673zM348.14 734.72c0 90.337 73.503 163.84 163.84 163.84 90.358 0 163.84-73.503 163.84-163.84v-40.96h40.96v40.96c0 112.927-91.873 204.8-204.8 204.8s-204.8-91.873-204.8-204.8v-40.96h40.96v40.96zM675.84 606.167c6.042 3.523 12.984 5.673 20.48 5.673s14.438-2.15 20.48-5.673v46.633h-40.96v-46.633zM307.18 693.76h40.96v-40.96h-40.96v40.96zM675.84 693.76h40.96v-40.96h-40.96v40.96zM655.36 570.88c0-22.61 18.35-40.96 40.96-40.96s40.96 18.35 40.96 40.96c0 15.114-8.274 28.18-20.48 35.287v-35.287c0-11.305-9.155-20.48-20.48-20.48s-20.48 9.175-20.48 20.48v35.287c-12.206-7.107-20.48-20.173-20.48-35.287zM696.32 550.4c11.325 0 20.48 9.175 20.48 20.48v35.287c-6.042 3.523-12.984 5.673-20.48 5.673s-14.438-2.15-20.48-5.673v-35.287c0-11.305 9.155-20.48 20.48-20.48zM327.66 550.4c-11.305 0-20.48 9.175-20.48 20.48v35.287c-12.186-7.107-20.48-20.152-20.48-35.287 0-22.61 18.35-40.96 40.96-40.96s40.96 18.35 40.96 40.96c0 15.114-8.294 28.18-20.48 35.287v-35.287c0-11.305-9.155-20.48-20.48-20.48zM307.18 606.167v-35.287c0-11.305 9.175-20.48 20.48-20.48s20.48 9.175 20.48 20.48v35.287c-6.042 3.523-12.984 5.673-20.48 5.673s-14.418-2.15-20.48-5.673zM486.81 230.687v16.159c0 18.473 3.359 33.874 10.097 46.141 6.717 12.288 18.493 24.986 35.308 38.093 19.988 15.79 32.891 28.078 38.707 36.823s8.724 19.169 8.724 31.273c0 14.111-4.71 24.965-14.111 32.543-9.441 7.557-22.958 11.346-40.591 11.346-15.995 0-30.781-2.253-44.401-6.82-13.619-4.526-26.89-9.994-39.854-16.384l-21.176 44.38c34.14 19.005 70.697 28.508 109.711 28.508 32.911 0 59.085-8.069 78.438-24.207 19.313-16.138 29-38.42 29-66.847 0-12.616-1.884-23.839-5.55-33.69s-9.277-19.21-16.753-28.119-20.398-20.521-38.728-34.796c-15.647-12.288-26.112-22.467-31.396-30.515-5.325-8.090-7.967-18.924-7.967-32.543v-11.366h-49.459zM476.467 150.221c0 25.395 12.37 38.093 37.089 38.093 12.104 0 21.361-3.318 27.73-9.953 6.41-6.656 9.605-16.015 9.605-28.14 0-11.94-3.236-21.402-9.728-28.365-6.472-6.984-15.688-10.486-27.607-10.486-11.94 0-21.115 3.42-27.505 10.22-6.39 6.84-9.585 16.364-9.585 28.631z" />
<glyph unicode="&#xe601;" d="M188.455-64l845.077 845.077 845.047-845.077h39.921l-885.88 876.907-884.291-876.907zM41.362-64l992.169 992.169 992.14-992.169h41.451l-1034.502 1024-1032.62-1024z" horiz-adv-x="2067" />
<glyph unicode="&#xe602;" d="M515.344 949.917l-10.083 10.083-505.261-510.438 509.269-513.562 10.083 10.083-503.921 503.921zM86.739 450.004l499.913 499.913-10.083 10.083-505.261-510.438 509.269-513.562 10.083 10.083z" horiz-adv-x="591" />
<glyph unicode="&#xe603;" d="M75.316 949.917l10.083 10.083 505.261-510.438-509.269-513.562-10.083 10.083 503.921 503.921zM503.921 450.004l-499.913 499.913 10.083 10.083 505.261-510.438-509.269-513.562-10.083 10.083z" horiz-adv-x="591" />
<glyph unicode="&#xe604;" d="M882.995 704h-161.075v30.72c0 115.753-94.167 209.92-209.92 209.92s-209.92-94.167-209.92-209.92v-30.72h-161.075l-87.777-768h917.545l-87.777 768zM353.28 734.72c0 87.511 71.209 158.72 158.72 158.72s158.72-71.209 158.72-158.72v-30.72h-317.44v30.72zM186.675 652.8h115.405v-41.697c-13.292-8.479-22.18-23.265-22.18-40.223 0-26.399 21.381-47.78 47.78-47.78s47.78 21.381 47.78 47.78c0 16.957-8.888 31.744-22.18 40.223v41.697h317.44v-41.206c-13.537-8.54-22.61-23.511-22.61-40.714 0-26.624 21.565-48.21 48.21-48.21s48.21 21.586 48.21 48.21c0 17.203-9.052 32.174-22.61 40.714v41.206h115.405l76.063-665.6h-802.775l76.063 665.6z" />
<glyph unicode="&#xe605;" d="M627.651 465.603h-231.219v174.909c0 26.368 21.443 47.811 47.811 47.811h104.049c26.358 0 47.821-21.443 47.821-47.811v-74.086c0-5.663 4.577-10.24 10.24-10.24 5.652 0 10.24 4.577 10.24 10.24v74.086c0 37.663-30.638 68.291-68.301 68.291h-104.049c-37.663 0-68.291-30.628-68.291-68.291v-174.909h-11.069c-37.663 0-68.291-30.628-68.291-68.291v-170.793c0-37.663 30.628-68.301 68.291-68.301h262.769c37.663 0 68.301 30.638 68.301 68.301v170.793c0 37.663-30.638 68.291-68.301 68.291zM675.471 226.519c0-26.358-21.463-47.821-47.821-47.821h-262.769c-26.368 0-47.811 21.463-47.811 47.821v170.793c0 26.368 21.443 47.811 47.811 47.811h262.769c26.358 0 47.821-21.443 47.821-47.811v-170.793z" />
<glyph unicode="&#xe606;" d="M707.984 631.008c0 164.208-71.68 254.64-201.824 254.64-126.384 0-201.824-95.184-201.824-254.64 0-140.384 90.544-254.608 201.824-254.608 111.296 0 201.824 114.224 201.824 254.608zM352.336 631.008c0 77.168 19.984 206.64 153.824 206.64 102.064 0 153.824-69.52 153.824-206.64 0-113.92-69.008-206.608-153.824-206.608-84.816 0-153.824 92.688-153.824 206.608zM819.568 359.712c-20.8 14.944-46.736 22.512-77.104 22.512-39.664 0-85.6-13.216-129.344-37.2-36.768-20.16-72.176-30.384-106.688-30.384-0.016 0-0.032 0-0.048 0h-1.92c-33.056 0-68.48 10.224-105.264 30.384-43.76 24-89.696 37.2-129.344 37.2-30.368 0-56.304-7.584-77.104-22.528-53.984-38.8-79.952-128.336-59.12-203.84 21.088-76.336 131.92-136.128 252.288-136.128h240.464c120.384 0 231.216 59.792 252.288 136.128 20.864 75.488-5.104 165.040-59.104 203.856zM832.416 168.64c-15.104-54.704-109.456-100.912-206.032-100.912h-240.448c-96.576 0-190.912 46.208-206.032 100.912-15.312 55.52 3.392 125.168 40.864 152.096 12.464 8.96 28.992 13.504 49.104 13.504 31.264 0 70-11.408 106.272-31.296 43.936-24.080 87.12-36.304 128.336-36.304h3.392c41.216 0 84.384 12.208 128.336 36.304 36.272 19.888 75.008 31.296 106.272 31.296 20.112 0 36.624-4.544 49.088-13.488 37.472-26.96 56.176-96.624 40.848-152.112z" />
<glyph unicode="&#xe607;" d="M934.176 791.52c-116.128 115.072-301.824 117.472-422.112 9.216-120.32 108.256-305.952 105.856-422.144-9.216-119.712-118.528-119.712-310.688 0-429.28 34.208-33.888 353.696-350.112 353.696-350.112 37.856-37.504 99.072-37.504 136.896 0 0 0 349.824 346.304 353.696 350.112 119.744 118.592 119.744 310.752-0.032 429.28zM888.576 407.424l-353.696-350.112c-12.576-12.512-33.088-12.512-45.6 0l-353.696 350.112c-94.4 93.44-94.4 245.472 0 338.912 91.008 90.080 237.312 93.248 333.088 7.104l43.392-39.040 43.36 39.040c95.808 86.144 242.112 83.008 333.12-7.104 94.4-93.408 94.4-245.44 0.032-338.912zM296.096 719.968c-0.064 0-0.064-0.032-0.128-0.032-75.040-0.064-135.872-60.896-135.872-135.968v0c0-8.832 7.168-16 16-16s16 7.168 16 16v0.032c0 57.408 46.56 103.968 103.968 103.968h0.032c8.832 0 16 7.168 16 16s-7.136 16-16 16z" />
<glyph unicode="&#xe608;" d="M761.405 455.854h-29.409v89.59c0 91.535-74.476 166.011-166.011 166.011-91.546 0-166.011-74.476-166.011-166.011v-89.59h-29.409c-16.937 0-30.648-13.711-30.648-30.638v-303.995c0-16.927 13.701-30.648 30.648-30.648h390.84c16.906 0 30.648 13.722 30.648 30.648v303.985c0 16.927-13.742 30.648-30.648 30.648zM461.251 545.444c0 57.754 46.981 104.735 104.735 104.735s104.735-46.991 104.735-104.735v-89.59h-209.469v89.59zM730.767 151.859h-329.564v242.708h329.564v-242.708z" />
<glyph unicode="&#xe609;" d="M800 544v128c0 159.072-128.928 288-288 288s-288-128.928-288-288v-128c-53.024 0-96-42.976-96-96v-224c0-159.072 128.928-288 288-288h192c159.072 0 288 128.928 288 288v224c0 53.056-43.008 96-96 96zM288 672c0 123.712 100.288 224 224 224s224-100.288 224-224v-128h-64v127.936c0 88.384-71.616 160-160 160s-160-71.616-160-160v-127.936h-64v128zM640 672v-128h-256v128c0 70.688 57.312 128 128 128s128-57.312 128-128zM832 352v-128c0-123.488-100.512-224-224-224h-192c-123.488 0-224 100.512-224 224v224c0 17.664 14.336 32 32 32 21.344 0 42.656 0 64 0h448c21.312 0 42.624 0 64 0 17.632 0 32-14.336 32-32v-96zM512 352c-35.328 0-64-28.64-64-64 0-19.424 10.656-56.32 21.344-85.504 8.704-23.744 19.648-42.432 42.656-42.432 25.024 0 33.952 18.496 42.688 42.112 10.816 29.248 21.312 66.336 21.312 85.824 0 35.36-28.672 64-64 64z" />
<glyph unicode="&#xe60a;" d="M704.064 960c-176.736 0-320-143.296-320-320 0-41.12 8.608-80.032 22.816-116.128l-388.768-388.736c-11.232-11.264-18.176-21.952-18.176-39.136v-96c0-34.24 29.728-64 64-64h96c17.152 0 28 6.88 39.232 18.048l45.92 45.952h74.976c35.328 0 64 28.672 64 64v64h64c35.328 0 64 28.672 64 64v75.008l75.808 75.872c36.128-14.24 75.008-22.88 116.192-22.88 176.672 0 320 143.296 320 320s-143.328 320-320 320zM704.064 384c-47.36 0-91.264 13.76-129.312 36.224l-11.008-10.976-96.96-96.992c-12-12-18.752-28.256-18.752-45.248v-75.008h-64c-35.328 0-64-28.64-64-64v-64h-74.944c-16.96 0-33.248-6.752-45.248-18.752l-45.376-45.376-90.432 0.128-0.096 91.2 373.28 372.64c0 0 0-0.032 0.032-0.064l47.008 47.008c-22.464 38.048-36.224 81.92-36.224 129.28 0 141.376 114.656 256 256 256s256-114.624 256-256-114.592-256.064-255.968-256.064zM890.176 696.352c-35.872 49.984-79.552 93.6-129.76 129.728-8.16 5.92-18.72 7.392-28.224 4.064-44.448-15.648-74.88-46.048-90.432-90.496-1.184-3.328-1.76-6.784-1.76-10.208 0-6.368 1.984-12.672 5.824-18.016 36-50.048 79.616-93.696 129.696-129.696 8.224-5.888 18.688-7.392 28.224-4.096 44.512 15.552 74.944 46.016 90.56 90.496 1.152 3.328 1.76 6.784 1.76 10.208-0.064 6.368-2.048 12.672-5.888 18.016zM794.176 607.68c-47.328 33.984-88.512 75.2-122.24 121.376 12.384 35.296 35.552 58.464 69.824 71.072 47.328-34.080 88.448-75.168 122.112-121.952-12.512-35.040-35.616-58.080-69.696-70.496z" />
<glyph unicode="&#xe60b;" d="M544 896c-265.088 0-480-214.912-480-480 0-265.152 214.912-480 480-480 265.152 0 480 214.848 480 480 0 265.088-214.848 480-480 480zM544 0c-229.376 0-416 186.624-416 416s186.624 416 416 416 416-186.624 416-416-186.624-416-416-416zM800 448h-512c-17.664 0-32-14.336-32-32 0-17.6 14.336-32 32-32h512c17.6 0 32 14.4 32 32 0 17.664-14.4 32-32 32zM800 640h-512c-17.664 0-32-14.336-32-32s14.336-32 32-32h512c17.6 0 32 14.336 32 32s-14.4 32-32 32zM800 256h-512c-17.664 0-32-14.4-32-32s14.336-32 32-32h512c17.6 0 32 14.4 32 32s-14.4 32-32 32z" />
<glyph unicode="&#xe60c;" d="M128 384c0 64 64 128 128 128v128c0 96 96 192 192 192h128c96 0 192-96 192-192v-128c64 0 128-64 128-128v-256c0-64-64-128-128-128h-512c-64 0-128 64-128 128v256zM320 640v-128h384v128c0 64-64 128-128 128h-128c-64 0-128-64-128-128v0zM320 640z" />
<glyph unicode="&#xe60d;" d="M512 368.902c129.817 0 235.062 126.732 235.062 283.057s-105.245 283.050-235.062 283.050-235.055-126.732-235.055-283.057c0-156.325 105.238-283.050 235.055-283.050M512 368.902c-268.376 0-488.028-179.929-506.878-407.918h1013.755c-18.85 227.982-238.494 407.918-506.878 407.918z" />
<glyph unicode="&#xe60e;" d="M1018.878 604.47c0 150.249-122.188 272.047-272.935 272.047-99.299 0-186.186-52.865-233.935-131.891-47.749 79.026-134.651 131.891-233.95 131.891-150.748 0-272.935-121.797-272.935-272.047 0-78.181 33.148-148.616 86.135-198.237h-0.072l390.752-372.689c7.167-8.583 17.918-14.052 29.969-14.052 11.162 0 21.212 4.718 28.322 12.253l392.529 374.488c52.995 49.613 86.121 120.049 86.121 198.237z" />
<glyph unicode="&#xe60f;" d="M1000.682 1.944l-303.791 303.791c59.625 69.395 95.932 159.381 95.932 257.854 0 218.586-177.825 396.411-396.411 396.411s-396.411-177.825-396.411-396.411 177.825-396.411 396.411-396.411c86.534 0 166.446 28.192 231.714 75.435l306.612-306.612 65.944 65.944zM46.637 563.589c0 192.866 156.909 349.775 349.775 349.775s349.775-156.909 349.775-349.775c0-192.866-156.909-349.775-349.775-349.775-192.866 0-349.775 156.909-349.775 349.775zM480.637 726.047c-19.144 15.996-45.028 23.971-77.65 23.971-38.615 0-74.828-9.397-108.617-28.215l20.963-43.955c12.825 6.319 25.977 11.729 39.455 16.23s28.145 6.739 43.955 6.739c17.489 0 30.873-3.754 40.201-11.239s13.991-18.235 13.991-32.203c0-11.986-2.868-22.316-8.628-30.967-5.736-8.674-18.515-20.823-38.335-36.447-16.649-12.988-28.308-25.557-34.954-37.706-6.669-12.149-10.004-27.376-10.004-45.681v-15.996h48.945v11.239c0 13.501 2.612 24.228 7.858 32.203 5.247 7.998 15.6 18.072 31.083 30.221 18.142 14.154 30.943 25.627 38.312 34.464 7.415 8.814 12.988 18.095 16.603 27.842 3.638 9.724 5.503 20.847 5.503 33.345 0.047 28.122-9.561 50.181-28.682 66.154zM387.504 448.63c-24.461 0-36.703-12.569-36.703-37.706 0-12.149 3.171-21.593 9.491-28.332 6.319-6.739 15.39-10.12 27.212-10.12s20.94 3.451 27.352 10.33c6.389 6.926 9.607 16.276 9.607 28.099 0 11.986-3.171 21.266-9.491 27.842-6.343 6.599-15.483 9.887-27.469 9.887z" horiz-adv-x="1001" />
<glyph unicode="&#xe610;" d="M0 960h1024v-102.4h-1024v102.4zM0 652.8h1024v-102.4h-1024v102.4zM0 345.6h1024v-102.4h-1024v102.4zM0 38.4h1024v-102.4h-1024v102.4z" />
<glyph unicode="&#xe611;" d="M388.766 607.074c1.733-10.634 5.829-17.329 9.846-21.543 9.61-63.921 63.094-123.274 111.97-123.274 56.95 0 108.859 64.236 118.942 123.156 4.096 4.175 8.231 10.949 10.043 21.662 3.269 11.973 7.404 32.807 0.079 42.535-0.394 0.473-0.827 0.945-1.182 1.418 6.892 25.167 15.596 77.115-15.557 112.561-2.757 3.545-20.244 24.418-57.58 35.407l-17.802 6.144c-29.342 9.058-47.852 11.106-48.601 11.185-1.3 0.118-2.718 0-4.017-0.354-1.024-0.276-4.49-1.221-7.247-0.827-7.010 0.985-17.526-2.599-19.456-3.308-2.402-0.945-59.274-23.749-76.564-76.761-1.575-4.332-8.468-26.86 0.67-82.078-1.339-0.906-2.56-2.087-3.623-3.466-7.365-9.689-3.19-30.484 0.079-42.457zM411.097 727.513c0.118 0.276 0.197 0.551 0.315 0.866 14.060 43.678 63.961 63.842 64.276 64 2.324 0.866 6.735 2.127 9.098 2.127 4.923-0.67 10.555 0.197 13.627 0.906 5.002-0.709 20.598-3.269 42.654-10.043l17.92-6.144c33.28-9.846 47.38-28.239 47.458-28.396 0.197-0.276 0.433-0.551 0.67-0.788 28.83-32.532 13.942-86.292 8.704-101.967-1.221-3.702-0.315-7.719 2.402-10.516 1.339-1.418 2.993-2.363 4.805-2.875 0.039-5.081-1.378-14.454-3.663-22.607-0.118-0.394-0.197-0.788-0.276-1.182-0.866-5.75-2.796-9.925-5.435-11.855-2.245-1.654-3.742-4.135-4.096-6.892-6.971-49.388-52.657-109.095-98.934-109.095-38.912 0-85.268 54.981-91.845 108.898-0.354 2.796-1.812 5.356-4.096 7.050-2.639 1.969-4.569 6.223-5.474 11.894-0.039 0.394-0.158 0.827-0.236 1.221-2.127 7.562-3.505 16.266-3.623 21.504 1.969 0.197 3.899 0.866 5.553 2.166 3.111 2.402 4.569 6.302 3.86 10.161-11.422 59.943-3.663 81.566-3.663 81.566zM732.121 415.508c0 0-11.618 15.872-39.148 26.388 0 0-2.284 0.709-5.829 1.851-24.458 11.5-47.734 18.865-47.734 18.865-5.002 1.772-9.334 3.505-13.351 5.238-16.581 8.231-30.405 17.487-33.319 26.191l12.446-99.919-90.348-232.172-85.307 227.446 1.733 104.802c-7.719-24.182-100.273-52.303-100.273-52.303-27.53-10.555-39.148-26.388-39.148-26.388-40.684-60.377-45.489-194.639-45.489-194.639 0.551-30.681 13.785-33.91 13.785-33.91 93.538-41.708 240.404-49.152 240.404-49.152 7.916-0.158 15.321 0.236 22.646 0.709l0.197-0.788c0 0 146.865 7.444 240.404 49.152 0 0 13.273 3.23 13.785 33.91 0 0.039-4.766 134.38-45.45 194.718zM589.588 490.063c1.063 1.339 2.127 2.56 3.151 3.978-0.197 0.866-0.236 1.339-0.236 1.339-0.985-1.89-1.969-3.466-2.914-5.317zM431.734 494.395l-0.236 0.945-0.197-1.103c0.039 0.197 0.236 0.394 0.276 0.591 0 0 0.079-0.158 0.158-0.433zM475.53 451.938l40.094-61.322 40.094 61.322c-44.229-18.865-80.187 0-80.187 0zM515.623 184.399l30.641 186.21-30.641 20.007-30.681-20.007z" />
<glyph unicode="&#xe612;" d="M512-29.361c0 0.354 0 0.354 0 0 0-0.335-7.070 15.675-23.020 30.484-39.7 36.864-121.502 91.471-170.85 134.361-75.697 65.831-161.142 140.465-229.514 221.873-62.050 73.846-85.76 158.799-68.923 245.701 19.87 102.459 91.038 181.642 135.148 205.135 81.723 43.52 158.602 53.563 228.352 29.775 45.627-15.537 80.896-43.067 106.969-70.971 14.848-15.892 35.466-16.010 50.393-0.197 26.762 28.298 62.838 56.281 109.036 71.542 69.356 22.942 145.467 12.761 226.087-30.149 44.13-23.493 115.2-102.676 135.050-205.154 16.817-86.863-7.070-171.855-69.12-245.681-68.391-81.428-155.884-156.062-231.582-221.893-49.467-42.929-134.223-97.634-174.907-134.498-16.108-14.612-23.119-30.661-23.119-30.326zM189.282 743.68c-25.482-13.568-82.156-74.713-97.634-154.545-12.682-65.418 5.258-127.567 53.327-184.773 64.709-77.017 148.244-149.642 221.932-213.721 51.279-44.583 92.081-80.522 122.112-111.537 15.143-15.616 37.435-15.616 52.559 0 30.031 31.015 70.814 66.954 122.092 111.518 73.708 64.079 157.223 136.684 221.952 213.721 48.049 57.206 66.009 119.355 53.327 184.773-15.478 79.833-72.133 140.958-97.634 154.545-62.306 33.201-119.099 41.728-168.822 25.285-77.391-25.561-117.484-102.932-124.731-118.174l-16.896-35.584c-9.334-19.653-24.162-19.515-33.122 0.315l-16.246 35.919c-4.155 9.196-42.87 90.506-121.817 117.386-16.679 5.691-34.225 8.527-52.5 8.527-36.391-0.020-75.855-11.244-117.898-33.654z" />
<glyph unicode="&#xe613;" d="M510 354c160 0 290 130 290 290s-130 290-290 290-290-130-290-290 130-290 290-290zM510 848c112 0 202-92 202-204s-90-202-202-202-202 90-202 202 90 204 202 204zM644 328c-14 4-30 2-42-8l-92-78-92 78c-12 10-28 12-42 8-60-20-360-122-360-270 0-24 18-44 42-44h902c24 0 44 20 44 44 0 148-300 250-360 270zM126 102c48 50 160 104 254 136l102-86c16-14 40-14 56 0l102 86c94-32 206-86 254-136h-768z" />
<glyph unicode="&#xe614;" d="M603.287 960c-227.979 0-412.775-184.796-412.775-412.775 0-98.113 34.419-188.098 91.573-259.096l-272.813-272.749c-17.146-17.21-17.146-45.024 0-62.17s45.024-17.21 62.17 0l272.813 272.813c70.87-57.153 160.919-91.573 259.032-91.573 227.979 0 412.775 184.796 412.775 412.775 0 227.979-184.86 412.775-412.775 412.775zM603.287 197.953c-192.607 0-349.271 156.664-349.271 349.271s156.664 349.271 349.271 349.271c192.607 0 349.271-156.664 349.271-349.271 0-192.607-156.664-349.271-349.271-349.271z" />
<glyph unicode="&#xe615;" d="M320.001 512l149.333-149.333 234.664 298.664 64-64-298.664-362.664-213.333 213.333 64 64z" />
<glyph unicode="&#xe616;" d="M68.267 891.733h477.867v68.267h-546.133v-1024h546.133v68.267h-477.867zM703.966 792.132l-48.333-48.265 261.734-261.734h-712.567v-68.267h689.835l-239.002-239.002 48.333-48.265 284.467 284.467 0.341-0.41 48.265 48.265z" horiz-adv-x="1037" />
<glyph unicode="&#xe617;" d="M939.751-64c0 229.562-126.183 382.45-295.293 455.528 72.465 57.85 129.167 143.017 129.167 242.724-0.077 173.702-133.529 325.749-307.231 325.749s-315.036-136.819-315.036-310.521c0-102.232 59.533-198.648 135.289-256.191-163.754-75.296-285.805-227.802-285.805-457.364M189.618 654.070c0 152.659 124.805 269.2 277.464 269.2s266.216-119.984 266.216-272.643-113.174-279.377-265.833-279.377c-152.582 0-277.847 130.162-277.847 282.821zM41.474-23.368c23.033 186.404 133.988 336.921 277.694 393.393 45.071-24.793 92.054-33.516 147.073-33.516 57.62 0 98.1 8.647 144.701 35.888 147.991-54.33 271.495-211.35 295.293-396.989l-864.76 1.224z" horiz-adv-x="940" />
<glyph unicode="&#xe618;" d="M582.644-64l-8.709 4.354c-4.588 2.255-479.925 310.489-562.038 632.331-25.194 98.986-10.342 188.875 44.245 267.256 55.364 79.625 125.191 120.059 207.459 120.059 138.41 0 269.433-115.627 311.889-157.072 43.234 41.29 176.978 157.072 317.176 157.072 83.201 0 153.495-40.434 208.937-120.059 54.975-79.080 69.983-169.824 44.478-269.744-82.346-322.931-550.218-627.588-554.728-629.921l-8.709-4.277zM263.601 921.121c-68.816 0-127.835-34.758-175.578-103.341-46.422-66.794-60.029-143.464-40.279-227.91 65.861-282.185 469.194-564.915 534.9-609.004 65.006 43.933 462.274 324.797 527.824 607.060 19.751 85.223 6.065 162.515-40.668 229.854-47.821 68.583-107.384 103.341-177.134 103.341-150.307 0-301.702-157.538-303.258-159.094l-14.23-15.007-14.074 15.163c-1.477 1.555-149.529 158.938-297.504 158.938z" horiz-adv-x="1158" />
<glyph unicode="&#xe619;" d="M1024 903.098l-56.902 56.902-455.138-455.057-455.057 455.057-56.902-56.902 455.057-455.057-455.057-455.138 56.902-56.902 455.057 455.138 455.138-455.138 56.902 56.902-455.138 455.138z" />
<glyph unicode="&#xe61a;" d="M773.618 517.016v108.345c0 184.538-150.127 334.639-334.639 334.639s-334.665-150.101-334.665-334.639v-108.345h-104.313v-581.016h877.956v581.016h-104.339zM168.514 625.361c0 149.125 121.314 270.439 270.439 270.439 149.125 0 270.439-121.314 270.439-270.439v-108.345h-540.877v108.345zM813.73 0.201h-749.529v452.614h749.581v-452.614zM352.436 40.852h173.059v336.257h-173.059v-336.257zM390.956 338.589h96.018v-259.216h-96.018v259.216z" horiz-adv-x="878" />
<glyph unicode="&#xe61b;" d="M799.386 464.538c31.693 49.894 50.33 108.851 50.33 172.237 0 177.792-144.614 322.458-322.432 322.458-177.843-0.026-322.483-144.691-322.483-322.483 0-62.362 18.099-120.448 48.87-169.856-151.731-91.955-253.67-258.048-253.67-448.102 0-28.237 2.842-55.757 7.168-82.79h1034.368c4.326 27.059 7.194 54.579 7.194 82.79 0.077 188.314-99.917 353.28-249.344 445.747zM527.258 895.206c142.515 0 258.432-115.942 258.432-258.458s-115.891-258.458-258.432-258.458-258.458 115.942-258.458 258.458 115.942 258.458 258.458 258.458zM64.307 12.8c-0.026 2.022-0.307 3.994-0.307 5.99 0 169.395 92.083 317.414 228.71 397.338 58.854-62.49 142.106-101.862 234.547-101.862 91.213 0 173.542 38.246 232.243 99.328 134.63-80.384 225.306-226.944 225.306-394.829 0-1.997-0.282-3.968-0.307-5.99h-920.192z" horiz-adv-x="1049" />
<glyph unicode="&#xe61c;" d="M968.772 4.267h-477.867v-68.267h546.133v1024h-546.133v-68.267h477.867zM499.166 769.399l-48.333-48.265 261.734-261.734h-712.567v-68.267h689.835l-239.002-239.002 48.333-48.265 284.467 284.467 0.341-0.41 48.265 48.265z" horiz-adv-x="1037" />
<glyph unicode="&#xe61d;" d="M1035.176 858.932c-128.713 131.526-334.48 134.288-467.847 10.536-133.316 123.752-339.057 120.99-467.821-10.536-132.677-135.464-132.677-355.118 0-490.608 37.926-38.77 391.995-400.179 391.995-400.179 41.941-42.862 109.788-42.862 151.704 0 0 0 387.647 395.831 391.995 400.179 132.677 135.49 132.677 355.143-0.026 490.608zM984.616 419.958l-391.995-400.179c-13.912-14.296-36.647-14.296-50.534 0l-391.969 400.179c-104.622 106.796-104.622 280.544 0 387.366 100.863 102.934 263.001 106.566 369.158 8.107l48.079-44.626 48.053 44.626c106.208 98.434 268.32 94.853 369.209-8.107 104.622-106.796 104.622-280.57 0-387.366z" horiz-adv-x="1135" />
<glyph unicode="&#xe61e;" d="M453.501 960h-356.316c-53.674 0-97.185-43.511-97.185-97.185v-829.635c0-53.676 43.511-97.182 97.185-97.182h356.316c53.674 0 97.185 43.506 97.185 97.182v829.635c0 53.674-43.511 97.185-97.185 97.185zM228.314 894.011h98.607c10.893 0 19.722-8.829 19.722-19.722 0-10.891-8.829-19.722-19.722-19.722h-98.607c-10.891 0-19.722 8.829-19.722 19.722 0.002 10.893 8.831 19.722 19.722 19.722zM275.343-31.764c-29.692 0-53.76 24.069-53.76 53.76s24.069 53.76 53.76 53.76c29.689 0 53.76-24.069 53.76-53.76s-24.071-53.76-53.76-53.76zM513.519 106.667h-476.352v683.426h476.352v-683.426zM125.156 591.361h14.304v-14.304h-14.304v14.304zM125.156 577.057h14.304v-14.304h-14.304v14.304zM125.156 562.755h14.304v-14.304h-14.304v14.304zM125.156 548.451h14.304v-14.304h-14.304v14.304zM125.156 534.147h14.304v-14.304h-14.304v14.304zM125.156 519.843h14.304v-14.304h-14.304v14.304zM125.156 505.541h14.304v-14.304h-14.304v14.304zM125.156 476.933h14.304v-14.304h-14.304v14.304zM125.156 448.327h14.304v-14.302h-14.304v14.302zM125.156 419.718h14.304v-14.302h-14.304v14.302zM125.156 391.112h14.304v-14.304h-14.304v14.304zM125.156 376.808h14.304v-14.302h-14.304v14.302zM125.156 362.506h14.304v-14.304h-14.304v14.304zM125.156 348.202h14.304v-14.302h-14.304v14.302zM125.156 333.898h14.304v-14.304h-14.304v14.304zM125.156 319.594h14.304v-14.302h-14.304v14.302zM125.156 305.292h14.304v-14.304h-14.304v14.304zM139.46 591.361h14.304v-14.304h-14.304v14.304zM139.46 505.541h14.304v-14.304h-14.304v14.304zM139.46 462.631h14.304v-14.304h-14.304v14.304zM139.46 448.327h14.304v-14.302h-14.304v14.302zM139.46 434.022h14.304v-14.304h-14.304v14.304zM139.46 419.718h14.304v-14.302h-14.304v14.302zM139.46 391.112h14.304v-14.304h-14.304v14.304zM139.46 305.292h14.304v-14.304h-14.304v14.304zM153.762 591.361h14.304v-14.304h-14.304v14.304zM153.762 562.755h14.304v-14.304h-14.304v14.304zM153.762 548.451h14.304v-14.304h-14.304v14.304zM153.762 534.147h14.304v-14.304h-14.304v14.304zM153.762 505.541h14.304v-14.304h-14.304v14.304zM153.762 476.933h14.304v-14.304h-14.304v14.304zM153.762 434.022h14.304v-14.304h-14.304v14.304zM153.762 419.718h14.304v-14.302h-14.304v14.302zM153.762 391.112h14.304v-14.304h-14.304v14.304zM153.762 362.506h14.304v-14.304h-14.304v14.304zM153.762 348.202h14.304v-14.302h-14.304v14.302zM153.762 333.898h14.304v-14.304h-14.304v14.304zM153.762 305.292h14.304v-14.304h-14.304v14.304zM168.066 591.361h14.304v-14.304h-14.304v14.304zM168.066 562.755h14.304v-14.304h-14.304v14.304zM168.066 548.451h14.304v-14.304h-14.304v14.304zM168.066 534.147h14.304v-14.304h-14.304v14.304zM168.066 505.541h14.304v-14.304h-14.304v14.304zM168.066 434.022h14.304v-14.304h-14.304v14.304zM168.066 419.718h14.304v-14.302h-14.304v14.302zM168.066 391.112h14.304v-14.304h-14.304v14.304zM168.066 362.506h14.304v-14.304h-14.304v14.304zM168.066 348.202h14.304v-14.302h-14.304v14.302zM168.066 333.898h14.304v-14.304h-14.304v14.304zM168.066 305.292h14.304v-14.304h-14.304v14.304zM182.37 591.361h14.304v-14.304h-14.304v14.304zM182.37 562.755h14.304v-14.304h-14.304v14.304zM182.37 548.451h14.304v-14.304h-14.304v14.304zM182.37 534.147h14.304v-14.304h-14.304v14.304zM182.37 505.541h14.304v-14.304h-14.304v14.304zM182.37 462.631h14.304v-14.304h-14.304v14.304zM182.37 434.022h14.304v-14.304h-14.304v14.304zM182.37 391.112h14.304v-14.304h-14.304v14.304zM182.37 362.506h14.304v-14.304h-14.304v14.304zM182.37 348.202h14.304v-14.302h-14.304v14.302zM182.37 333.898h14.304v-14.304h-14.304v14.304zM182.37 305.292h14.304v-14.304h-14.304v14.304zM196.674 591.361h14.304v-14.304h-14.304v14.304zM196.674 505.541h14.304v-14.304h-14.304v14.304zM196.674 448.327h14.304v-14.302h-14.304v14.302zM196.674 434.022h14.304v-14.304h-14.304v14.304zM196.674 391.112h14.304v-14.304h-14.304v14.304zM196.674 305.292h14.304v-14.304h-14.304v14.304zM210.976 591.361h14.304v-14.304h-14.304v14.304zM210.976 577.057h14.304v-14.304h-14.304v14.304zM210.976 562.755h14.304v-14.304h-14.304v14.304zM210.976 548.451h14.304v-14.304h-14.304v14.304zM210.976 534.147h14.304v-14.304h-14.304v14.304zM210.976 519.843h14.304v-14.304h-14.304v14.304zM210.976 505.541h14.304v-14.304h-14.304v14.304zM210.976 476.933h14.304v-14.304h-14.304v14.304zM210.976 448.327h14.304v-14.302h-14.304v14.302zM210.976 419.718h14.304v-14.302h-14.304v14.302zM210.976 391.112h14.304v-14.304h-14.304v14.304zM210.976 376.808h14.304v-14.302h-14.304v14.302zM210.976 362.506h14.304v-14.304h-14.304v14.304zM210.976 348.202h14.304v-14.302h-14.304v14.302zM210.976 333.898h14.304v-14.304h-14.304v14.304zM210.976 319.594h14.304v-14.302h-14.304v14.302zM210.976 305.292h14.304v-14.304h-14.304v14.304zM225.281 476.933h14.304v-14.304h-14.304v14.304zM225.281 462.631h14.304v-14.304h-14.304v14.304zM225.281 434.022h14.304v-14.304h-14.304v14.304zM225.281 419.718h14.304v-14.302h-14.304v14.302zM239.585 591.361h14.304v-14.304h-14.304v14.304zM239.585 562.755h14.304v-14.304h-14.304v14.304zM239.585 519.843h14.304v-14.304h-14.304v14.304zM239.585 505.541h14.304v-14.304h-14.304v14.304zM239.585 462.631h14.304v-14.304h-14.304v14.304zM239.585 448.327h14.304v-14.302h-14.304v14.302zM239.585 419.718h14.304v-14.302h-14.304v14.302zM239.585 405.416h14.304v-14.304h-14.304v14.304zM239.585 391.112h14.304v-14.304h-14.304v14.304zM239.585 333.898h14.304v-14.304h-14.304v14.304zM239.585 305.292h14.304v-14.304h-14.304v14.304zM253.887 577.057h14.304v-14.304h-14.304v14.304zM253.887 562.755h14.304v-14.304h-14.304v14.304zM253.887 519.843h14.304v-14.304h-14.304v14.304zM253.887 491.237h14.304v-14.304h-14.304v14.304zM253.887 476.933h14.304v-14.304h-14.304v14.304zM253.887 462.631h14.304v-14.304h-14.304v14.304zM253.887 448.327h14.304v-14.302h-14.304v14.302zM253.887 405.416h14.304v-14.304h-14.304v14.304zM253.887 391.112h14.304v-14.304h-14.304v14.304zM253.887 348.202h14.304v-14.302h-14.304v14.302zM268.191 562.755h14.304v-14.304h-14.304v14.304zM268.191 534.147h14.304v-14.304h-14.304v14.304zM268.191 505.541h14.304v-14.304h-14.304v14.304zM268.191 491.237h14.304v-14.304h-14.304v14.304zM268.191 476.933h14.304v-14.304h-14.304v14.304zM268.191 462.631h14.304v-14.304h-14.304v14.304zM268.191 448.327h14.304v-14.302h-14.304v14.302zM268.191 434.022h14.304v-14.304h-14.304v14.304zM268.191 419.718h14.304v-14.302h-14.304v14.302zM268.191 391.112h14.304v-14.304h-14.304v14.304zM268.191 348.202h14.304v-14.302h-14.304v14.302zM268.191 333.898h14.304v-14.304h-14.304v14.304zM268.191 319.594h14.304v-14.302h-14.304v14.302zM282.495 562.755h14.302v-14.304h-14.302v14.304zM282.495 491.237h14.302v-14.304h-14.302v14.304zM282.495 476.933h14.302v-14.304h-14.302v14.304zM282.495 405.416h14.302v-14.304h-14.302v14.304zM282.495 391.112h14.302v-14.304h-14.302v14.304zM282.495 376.808h14.302v-14.302h-14.302v14.302zM282.495 362.506h14.302v-14.304h-14.302v14.304zM296.797 591.361h14.304v-14.304h-14.304v14.304zM296.797 548.451h14.304v-14.304h-14.304v14.304zM296.797 534.147h14.304v-14.304h-14.304v14.304zM296.797 505.541h14.304v-14.304h-14.304v14.304zM296.797 476.933h14.304v-14.304h-14.304v14.304zM296.797 434.022h14.304v-14.304h-14.304v14.304zM296.797 391.112h14.304v-14.304h-14.304v14.304zM296.797 362.506h14.304v-14.304h-14.304v14.304zM296.797 319.594h14.304v-14.302h-14.304v14.302zM311.101 434.022h14.304v-14.304h-14.304v14.304zM311.101 419.718h14.304v-14.302h-14.304v14.302zM311.101 405.416h14.304v-14.304h-14.304v14.304zM311.101 376.808h14.304v-14.302h-14.304v14.302zM311.101 362.506h14.304v-14.304h-14.304v14.304zM311.101 348.202h14.304v-14.302h-14.304v14.302zM311.101 305.292h14.304v-14.304h-14.304v14.304zM325.405 591.361h14.302v-14.304h-14.302v14.304zM325.405 577.057h14.302v-14.304h-14.302v14.304zM325.405 562.755h14.302v-14.304h-14.302v14.304zM325.405 548.451h14.302v-14.304h-14.302v14.304zM325.405 534.147h14.302v-14.304h-14.302v14.304zM325.405 519.843h14.302v-14.304h-14.302v14.304zM325.405 505.541h14.302v-14.304h-14.302v14.304zM325.405 405.416h14.302v-14.304h-14.302v14.304zM325.405 348.202h14.302v-14.302h-14.302v14.302zM325.405 333.898h14.302v-14.304h-14.302v14.304zM325.405 305.292h14.302v-14.304h-14.302v14.304zM339.709 591.361h14.304v-14.304h-14.304v14.304zM339.709 505.541h14.304v-14.304h-14.304v14.304zM339.709 476.933h14.304v-14.304h-14.304v14.304zM339.709 391.112h14.304v-14.304h-14.304v14.304zM339.709 376.808h14.304v-14.302h-14.304v14.302zM339.709 319.594h14.304v-14.302h-14.304v14.302zM354.014 591.361h14.304v-14.304h-14.304v14.304zM354.014 562.755h14.304v-14.304h-14.304v14.304zM354.014 548.451h14.304v-14.304h-14.304v14.304zM354.014 534.147h14.304v-14.304h-14.304v14.304zM354.014 505.541h14.304v-14.304h-14.304v14.304zM354.014 462.631h14.304v-14.304h-14.304v14.304zM354.014 448.327h14.304v-14.302h-14.304v14.302zM354.014 434.022h14.304v-14.304h-14.304v14.304zM354.014 405.416h14.304v-14.304h-14.304v14.304zM354.014 391.112h14.304v-14.304h-14.304v14.304zM354.014 362.506h14.304v-14.304h-14.304v14.304zM354.014 348.202h14.304v-14.302h-14.304v14.302zM354.014 333.898h14.304v-14.304h-14.304v14.304zM368.318 591.361h14.302v-14.304h-14.302v14.304zM368.318 562.755h14.302v-14.304h-14.302v14.304zM368.318 548.451h14.302v-14.304h-14.302v14.304zM368.318 534.147h14.302v-14.304h-14.302v14.304zM368.318 505.541h14.302v-14.304h-14.302v14.304zM368.318 462.631h14.302v-14.304h-14.302v14.304zM368.318 448.327h14.302v-14.302h-14.302v14.302zM368.318 434.022h14.302v-14.304h-14.302v14.304zM368.318 419.718h14.302v-14.302h-14.302v14.302zM368.318 391.112h14.302v-14.304h-14.302v14.304zM368.318 376.808h14.302v-14.302h-14.302v14.302zM368.318 362.506h14.302v-14.304h-14.302v14.304zM368.318 348.202h14.302v-14.302h-14.302v14.302zM368.318 319.594h14.302v-14.302h-14.302v14.302zM368.318 305.292h14.302v-14.304h-14.302v14.304zM382.62 591.361h14.304v-14.304h-14.304v14.304zM382.62 562.755h14.304v-14.304h-14.304v14.304zM382.62 548.451h14.304v-14.304h-14.304v14.304zM382.62 534.147h14.304v-14.304h-14.304v14.304zM382.62 505.541h14.304v-14.304h-14.304v14.304zM382.62 476.933h14.304v-14.304h-14.304v14.304zM382.62 448.327h14.304v-14.302h-14.304v14.302zM382.62 405.416h14.304v-14.304h-14.304v14.304zM382.62 391.112h14.304v-14.304h-14.304v14.304zM382.62 333.898h14.304v-14.304h-14.304v14.304zM396.924 591.361h14.302v-14.304h-14.302v14.304zM396.924 505.541h14.302v-14.304h-14.302v14.304zM396.924 462.631h14.302v-14.304h-14.302v14.304zM396.924 419.718h14.302v-14.302h-14.302v14.302zM396.924 405.416h14.302v-14.304h-14.302v14.304zM396.924 391.112h14.302v-14.304h-14.302v14.304zM396.924 362.506h14.302v-14.304h-14.302v14.304zM396.924 333.898h14.302v-14.304h-14.302v14.304zM411.226 591.361h14.304v-14.304h-14.304v14.304zM411.226 577.057h14.304v-14.304h-14.304v14.304zM411.226 562.755h14.304v-14.304h-14.304v14.304zM411.226 548.451h14.304v-14.304h-14.304v14.304zM411.226 534.147h14.304v-14.304h-14.304v14.304zM411.226 519.843h14.304v-14.304h-14.304v14.304zM411.226 505.541h14.304v-14.304h-14.304v14.304zM411.226 476.933h14.304v-14.304h-14.304v14.304zM411.226 462.631h14.304v-14.304h-14.304v14.304zM411.226 448.327h14.304v-14.302h-14.304v14.302zM411.226 405.416h14.304v-14.304h-14.304v14.304zM411.226 391.112h14.304v-14.304h-14.304v14.304zM411.226 376.808h14.304v-14.302h-14.304v14.302zM411.226 333.898h14.304v-14.304h-14.304v14.304zM411.226 305.292h14.304v-14.304h-14.304v14.304z" horiz-adv-x="551" />
<glyph unicode="&#xe61f;" d="M882.578 704.344h-178.126c-0.217 141.005-114.985 255.656-256.042 255.656-141.048 0-255.817-114.651-256.029-255.656h-192.38v-768.344h896.693v768.344h-14.115zM832.519 0.174h-768.344v639.991h128.193v-191.85h65.125v255.634c0.004 105.277 85.648 190.926 190.917 190.926 105.277 0 190.926-85.648 190.926-190.926v-255.63h65.125v191.846h128.058v-639.991zM321.15 704.344h254.531v-64.174h-254.531v64.174z" horiz-adv-x="897" />
<glyph unicode="&#xe620;" d="M64 776.144h896v-76.816h-896v76.816zM64 488.752h896v-76.816h-896v76.816zM64 196.688h896v-76.848h-896v76.848z" />
<glyph unicode="&#xf000;" d="M0 960l1024-1024h-1024z" />
</font>
</defs>
</svg>
